<?xml version="1.0" standalone="no"?>
<!DOCTYPE svg PUBLIC "-//W3C//DTD SVG 1.1//EN" "http://www.w3.org/Graphics/SVG/1.1/DTD/svg11.dtd" >
<svg xmlns="http://www.w3.org/2000/svg">
<defs>
  <font id="icons" horiz-adv-x="2016">
    <font-face font-family="icons"
      units-per-em="1792" ascent="1536"
      descent="256" />
    <missing-glyph horiz-adv-x="0" />
    <glyph glyph-name="chevron-left"
      unicode="&#xEA01;"
      horiz-adv-x="1230" d="M900.8 1337.3C922.7 1337.3 944.7 1328.9 961.4 1312.2C994.9 1278.7 994.9 1224.5 961.4 1190.9L450.4 679.9000000000001L961.4 168.9000000000001C994.9 135.4000000000001 994.9 81.2000000000001 961.4 47.6000000000001C927.9 14.1000000000001 873.6999999999999 14.1000000000001 840.1 47.6000000000001L268.6 619.4C235.1 652.9 235.1 707.1 268.6 740.6999999999999L840.2 1312.3C856.9 1328.9 878.8 1337.3 900.8 1337.3z" />
    <glyph glyph-name="chevron-right"
      unicode="&#xEA02;"
      horiz-adv-x="1230" d="M389.8 1312.3L961.4 740.7C994.9 707.2 994.9 652.9000000000001 961.4 619.4000000000001L389.8000000000001 47.8000000000002C356.3000000000001 14.3000000000002 302.0000000000001 14.3000000000002 268.5000000000001 47.8000000000002C235.0000000000001 81.3000000000002 235.0000000000001 135.6000000000001 268.5000000000001 169.1000000000001L779.5 680.1000000000001L268.5 1191.1000000000001C235 1224.6000000000001 235 1278.9 268.5 1312.4C285.2 1329.1000000000001 307.2 1337.5000000000002 329.1 1337.5000000000002C351.2 1337.3 373.1 1328.9 389.8 1312.3z" />
    <glyph glyph-name="cross"
      unicode="&#xEA03;"
      horiz-adv-x="1310" d="M725 640L1288.4 38.9000000000001L1213.8000000000002 -31L655 565.3L96.2 -31L21.6 38.9000000000001L585 640L21.6 1241.1L96.2 1311L655 714.7L1213.8 1311L1288.3999999999999 1241.1L725 640z" />
    <glyph glyph-name="date"
      unicode="&#xEA04;"
      horiz-adv-x="1500" d="M101.9 382.2000000000001L159.9 395.5L101.9 382.2000000000001zM101.9 850L159.9 836.7L101.9 850zM1398.1 850L1340.1 836.7L1398.1 850zM1398.1 382.2000000000001L1340.1 395.5L1398.1 382.2000000000001zM978.6 -47.0999999999999L992.5 -105L978.6 -47.0999999999999zM521.4 -47.0999999999999L535.3 10.8000000000002L521.4 -47.0999999999999zM521.4 1279.4L535.3 1221.5L521.4 1279.4zM978.6 1279.4L992.5 1337.3L978.6 1279.4zM497.7 1354.2C497.7 1387.1 471.1 1413.7 438.2 1413.7S378.7 1387.1 378.7 1354.2H497.7zM378.6 1154.7C378.6 1121.8 405.2000000000001 1095.2 438.1 1095.2S497.6 1121.8 497.6 1154.7H378.6zM1121.4 1354.2C1121.4 1387.1 1094.8000000000002 1413.7 1061.9 1413.7S1002.4 1387.1 1002.4 1354.2H1121.4zM1002.3 1154.7C1002.3 1121.8 1028.8999999999999 1095.2 1061.8 1095.2S1121.3 1121.8 1121.3 1154.7H1002.3zM159.9 395.5C126.6 540.6 126.6 691.6 159.9 836.7L43.9 863.3000000000001C6.6 700.7 6.6 531.5 43.9 368.9000000000001L159.9 395.5zM1340.1 836.7C1373.3999999999999 691.6 1373.3999999999999 540.6 1340.1 395.5L1456.1 368.9000000000001C1493.3999999999999 531.5000000000001 1493.3999999999999 700.7 1456.1 863.3000000000001L1340.1 836.7zM964.7 10.7C823.5 -23.2 676.6 -23.2 535.4000000000001 10.7L507.6 -105C667.1 -143.2999999999999 833 -143.2999999999999 992.5 -105L964.7 10.7zM535.3 1221.5C676.5 1255.4 823.4 1255.4 964.6 1221.5L992.3999999999997 1337.2C832.8999999999999 1375.5 666.9999999999999 1375.5 507.4999999999999 1337.2L535.3 1221.5zM535.3 10.7C349.7 55.3 203.8 203.9000000000001 159.9 395.5L43.9 368.9000000000001C97.6 134.4000000000001 276.8 -49.5999999999999 507.5 -105L535.3 10.7zM992.4 -105C1223.1 -49.5999999999999 1402.3 134.4000000000001 1456 368.9000000000001L1340 395.5C1296.1 203.9000000000001 1150.2 55.3 964.6 10.7L992.4 -105zM964.7 1221.5C1150.3 1176.9 1296.2 1028.3 1340.1 836.7L1456.1 863.3000000000001C1402.3999999999999 1097.8000000000002 1223.1999999999998 1281.8000000000002 992.4999999999998 1337.2L964.7 1221.5zM507.6 1337.3C276.8 1281.9 97.7 1097.8 43.9 863.3L159.9 836.6999999999999C203.9 1028.3 349.7 1177 535.3 1221.5L507.6 1337.3zM126.3 875.8H1373.7V994.8H126.3V875.8zM378.6 1354.2V1154.7H497.6V1354.2H378.6zM1002.3 1354.2V1154.7H1121.3V1354.2H1002.3z" />
    <glyph glyph-name="email"
      unicode="&#xEA05;"
      horiz-adv-x="1500" d="M1456.9 879.3C1403.3000000000002 1095.1999999999998 1235.1000000000001 1259.1999999999998 1018.0000000000002 1307.3L985.4 1314.5C831.3000000000001 1348.6 668.5000000000001 1348.6 514.5000000000001 1314.5L481.9000000000001 1307.3C264.8000000000001 1259.1999999999998 96.6000000000001 1095.1999999999998 43.0000000000001 879.3C4.1000000000001 722.6999999999999 4.1000000000001 557.1999999999999 43.0000000000001 400.5999999999999C96.6000000000001 184.6999999999998 264.8000000000002 20.6999999999998 481.9000000000001 -27.4000000000001L514.5000000000001 -34.6000000000001C591.5000000000001 -51.6000000000001 670.7 -60.2 749.9000000000001 -60.2C829.1000000000001 -60.2 908.3 -51.7 985.3 -34.6000000000001L1017.9 -27.4000000000001C1235.1000000000001 20.8 1403.2 184.6999999999998 1456.8000000000002 400.5999999999999C1495.8 557.2 1495.8 722.7 1456.9 879.3zM505.3 1202.1L538 1209.3C676.7 1240.1 823.4 1240.1 962.2 1209.3L994.8 1202.1C1092.9 1180.4 1178.8000000000002 1129.6 1243.3000000000002 1058.6L856.4 782.3C792.6999999999999 736.6999999999999 707.0999999999999 736.8 643.5999999999999 782.3L256.8 1058.6C321.2 1129.6 407.1 1180.3 505.3 1202.1zM1352.4 426.5999999999999C1308.7 250.6999999999998 1171.7 117.0999999999999 994.8 77.8999999999999L962.2 70.6999999999998C823.4000000000001 39.8999999999999 676.8000000000001 39.8999999999999 537.9000000000001 70.6999999999998L505.3000000000001 77.8999999999999C328.4000000000001 117.0999999999999 191.3000000000001 250.8 147.7000000000001 426.5999999999999C113.0000000000001 566.1999999999999 113.0000000000001 713.6999999999999 147.7000000000001 853.3C158.1000000000001 895.1999999999999 173.8000000000001 934.6 194.0000000000001 971L581 694.5C682.1 622.3 817.9 622.3 919.1 694.5L1306.1 971C1326.3 934.6 1342 895.1 1352.3999999999999 853.3C1387.1 713.8 1387.1 566.2 1352.4 426.5999999999999z" />
    <glyph glyph-name="euro"
      unicode="&#xEA06;"
      horiz-adv-x="1500" d="M953.9 936.5C935 951.9 911.9 965.5 884.6 977.3C851.2 992.4 814.8000000000001 999.9 775.5 999.9C719.1 999.9 669.7 988.2 627.4 964.9C585.8 942.3 551.6999999999999 911.1 524.9 871.3C498.2 831.5 479.6 786.3 469.2 735.5999999999999H426.1C406.2 735.5999999999999 390.1 719.4999999999999 390.1 699.5999999999999C390.1 679.6999999999999 406.2 663.5999999999999 426.1 663.5999999999999H460.3C460.3 656.0999999999999 460.3 648.1999999999999 460.3 639.8999999999999C460.3 628.8999999999999 460.6999999999999 617.9999999999999 461.4 606.9999999999999H426.1C406.2 606.9999999999999 390.1 590.8999999999999 390.1 570.9999999999999C390.1 551.0999999999999 406.2 534.9999999999999 426.1 534.9999999999999H471.4C482.5 486.3 501.5 442.5 528.1999999999999 403.3999999999999C554.9 364.9999999999998 589.0999999999999 334.8999999999999 630.6999999999999 312.8999999999999C672.3 290.9999999999998 720.4999999999999 279.9999999999998 775.5 279.9999999999998C812.6 279.9999999999998 845.3 284.7999999999998 873.5 294.3999999999999C898.7 302.9999999999998 923 315.3999999999999 946.5 331.5999999999999C951.8 335.3 954.8 341.3 954.8 347.8C954.8 381.3999999999999 914.6 402.3 883.5999999999999 389.3C881.6999999999999 388.5 879.8 387.7000000000001 877.9999999999999 387C849.7999999999998 376 815.5999999999999 370.5999999999999 775.4999999999999 370.5999999999999C720.5999999999999 370.5999999999999 676.3999999999999 385.6999999999998 642.9999999999999 415.8C610.2999999999998 446 587.6999999999999 485.7 575.0999999999999 535.0999999999999H824.1999999999999C844.0999999999999 535.0999999999999 860.1999999999999 551.1999999999999 860.1999999999999 571.0999999999999C860.1999999999999 590.9999999999999 844.0999999999999 607.0999999999999 824.1999999999999 607.0999999999999H563.9C563.1999999999999 618.0999999999999 562.8 628.9999999999999 562.8 639.9999999999999C562.8 648.1999999999999 563.1999999999999 656.0999999999999 563.9 663.6999999999999H824.2C844.1 663.6999999999999 860.2 679.8 860.2 699.6999999999999C860.2 719.5999999999999 844.1 735.6999999999999 824.2 735.6999999999999H572.8C584.6999999999999 787.8 607.3 829.5999999999999 640.6999999999999 861.0999999999999C674.0999999999999 893.3 718.9999999999999 909.3999999999997 775.5 909.3999999999997C817.8 909.3999999999997 854.9 899.7999999999998 886.9 880.5999999999999C890.3 878.5999999999999 893.6 876.5999999999999 896.9 874.6999999999999C924.9 857.8 965.9 877.0999999999999 965.9 909.8C965.9 920 961.8 930 953.9 936.5zM1458.4 879.8C1404.7 1096.1 1236.2 1260.5 1018.6000000000003 1308.6999999999998L985.9 1315.8999999999999C831.6000000000001 1350.1 668.5000000000001 1350.1 514.1000000000001 1315.8999999999999L481.4000000000001 1308.6999999999998C263.8 1260.5 95.3 1096.1 41.6 879.8C2.6 722.9 2.6 557.0999999999999 41.6 400.1999999999998C95.3 183.8999999999999 263.8 19.4999999999998 481.4 -28.7000000000003L514.1 -35.9000000000003C591.3000000000001 -53.0000000000002 670.6 -61.5000000000002 750 -61.5000000000002C829.4 -61.5000000000002 908.7 -53.0000000000002 985.9 -35.9000000000003L1018.6 -28.7000000000003C1236.2 19.4999999999998 1404.7 183.7999999999997 1458.4 400.1999999999998C1497.4 557.1 1497.4 722.9 1458.4 879.8zM1353.6 426.2000000000001C1309.8 249.9000000000001 1172.5 116 995.2 76.7000000000001L962.4999999999998 69.5C823.3999999999999 38.7 676.4999999999999 38.7 537.3999999999999 69.5L504.6999999999999 76.7000000000001C327.3999999999999 116 190.0999999999999 249.9000000000001 146.2999999999999 426.2000000000001C111.4999999999999 566.1 111.4999999999999 713.9000000000001 146.2999999999999 853.8000000000001C190.1 1030.1 327.5 1164 504.8 1203.3L537.5 1210.5C607 1225.9 678.6 1233.6 750.1 1233.6C821.6 1233.6 893.1 1225.9 962.6 1210.5L995.3 1203.3C1172.6000000000001 1164 1309.9 1030.1 1353.7 853.8C1388.4 713.9 1388.4 566.1 1353.6 426.2000000000001z" />
    <glyph glyph-name="facebook"
      unicode="&#xEA07;"
      horiz-adv-x="1120" d="M976.99 528L1026.76 852.31H715.575V1062.7649999999999C715.575 1151.49 759.0450000000001 1237.975 898.415 1237.975H1039.885V1514.09S911.505 1536 788.76 1536C532.49 1536 364.9800000000001 1380.67 364.9800000000001 1099.48V852.31H80.115V528H364.98V-256H715.5749999999999V528z" />
    <glyph glyph-name="instagram"
      unicode="&#xEA08;"
      horiz-adv-x="1568" d="M784.35 1042.5C561.75 1042.5 382.2 862.9499999999999 382.2 640.35S561.75 238.2000000000001 784.35 238.2000000000001S1186.5 417.75 1186.5 640.35S1006.95 1042.5 784.35 1042.5zM784.35 378.8999999999999C640.5 378.8999999999999 522.8999999999999 496.1499999999999 522.8999999999999 640.3499999999999S640.1499999999999 901.7999999999998 784.3499999999999 901.7999999999998S1045.7999999999997 784.5499999999998 1045.7999999999997 640.3499999999999S928.1999999999998 378.8999999999999 784.3499999999999 378.8999999999999zM1296.75 1058.9499999999998C1296.75 1006.8 1254.75 965.1499999999997 1202.95 965.1499999999997C1150.8 965.1499999999997 1109.1499999999999 1007.1499999999997 1109.1499999999999 1058.9499999999998S1151.1499999999999 1152.75 1202.95 1152.75S1296.75 1110.75 1296.75 1058.9499999999998zM1563.1000000000001 963.75C1557.15 1089.4 1528.4500000000003 1200.7 1436.4 1292.4C1344.7000000000003 1384.1 1233.4 1412.8 1107.75 1419.1C978.25 1426.45 590.1 1426.45 460.6 1419.1C335.3 1413.15 224 1384.45 131.95 1292.75S11.55 1089.75 5.25 964.1C-2.1000000000001 834.6 -2.1000000000001 446.4500000000001 5.25 316.9500000000001C11.2 191.3 39.9 80 131.95 -11.7000000000003S334.95 -132.1000000000001 460.6 -138.4000000000001C590.1 -145.7500000000002 978.25 -145.7500000000002 1107.75 -138.4000000000001C1233.3999999999999 -132.4500000000003 1344.7 -103.7500000000002 1436.3999999999999 -11.7000000000003C1528.1 79.9999999999998 1556.7999999999997 191.2999999999997 1563.1 316.9499999999998C1570.45 446.4499999999998 1570.45 834.2499999999998 1563.1 963.7499999999998zM1395.8 178C1368.5 109.3999999999999 1315.65 56.55 1246.7 28.8999999999999C1143.45 -12.05 898.4499999999999 -2.6000000000001 784.35 -2.6000000000001S424.9 -11.7000000000003 322 28.8999999999999C253.4000000000001 56.2 200.55 109.0499999999997 172.9 178C131.95 281.25 141.4 526.25 141.4 640.35S132.3 999.8 172.9 1102.6999999999998C200.2 1171.3 253.05 1224.15 322 1251.8C425.25 1292.75 670.25 1283.3 784.35 1283.3S1143.8 1292.3999999999999 1246.7 1251.8C1315.3 1224.5 1368.1499999999999 1171.6499999999999 1395.8 1102.6999999999998C1436.75 999.45 1427.3 754.4499999999999 1427.3 640.35S1436.75 280.8999999999999 1395.8 178z" />
    <glyph glyph-name="linkedin"
      unicode="&#xEA09;"
      horiz-adv-x="1568" d="M1456 1424H111.65C50.05 1424 0 1373.25 0 1310.95V-30.95C0 -93.25 50.05 -144 111.65 -144H1456C1517.6000000000001 -144 1568 -93.25 1568 -30.95V1310.95C1568 1373.25 1517.6000000000001 1424 1456 1424zM473.9 80H241.5V828.3000000000001H474.25V80zM357.7 930.5C283.1500000000001 930.5 222.95 991.05 222.95 1065.25S283.1500000000001 1200 357.7 1200C431.9000000000001 1200 492.4499999999999 1139.45 492.4499999999999 1065.25C492.4499999999999 990.7 432.25 930.5 357.7 930.5zM1345.05 80H1112.6499999999999V444C1112.6499999999999 530.8000000000001 1110.8999999999999 642.4499999999999 991.8999999999997 642.4499999999999C870.8 642.4499999999999 852.2499999999999 547.9499999999999 852.2499999999999 450.3V80H619.8499999999999V828.3000000000001H842.7999999999998V726.1000000000001H845.9499999999998C877.0999999999999 784.9000000000001 953.0499999999998 846.8500000000001 1066.1 846.8500000000001C1301.2999999999997 846.8500000000001 1345.0499999999997 691.8000000000001 1345.0499999999997 490.2000000000003V80z" />
    <glyph glyph-name="phone"
      unicode="&#xEA0A;"
      horiz-adv-x="1500" d="M1091.5 -100C1054.4 -100 1017.2 -96.7 980.4 -90.2999999999999H980.4C977.4 -89.7 974.5 -89.2 971.5 -88.5999999999999C494 3.5 113.8 383.6000000000002 21.6 861.1000000000001C21 864.1000000000001 20.4 867.2000000000002 19.9 870.3000000000002C6.9 944.1000000000003 6.9 1018.9000000000002 19.9 1092.6000000000001C42.7 1221.8000000000002 129.2 1324.6000000000001 245.7000000000001 1361.0000000000002L266.0000000000001 1367.3000000000002C292.5000000000001 1375.6000000000001 320.0000000000001 1379.8000000000002 347.7000000000001 1379.8000000000002C475.5000000000001 1379.8000000000002 579.4000000000001 1267.7000000000003 579.4000000000001 1130.0000000000002V832.7000000000002C579.4000000000001 695.0000000000002 475.4000000000001 582.9000000000001 347.7000000000001 582.9000000000001C320.1000000000001 582.9000000000001 292.6000000000001 587.1000000000001 266.0000000000001 595.4000000000001L245.7000000000001 601.7C239.1000000000001 603.8000000000001 232.6000000000001 606 226.2000000000001 608.5C332.0000000000001 395.7000000000001 506.0000000000001 221.5999999999999 718.9000000000001 115.8C716.4000000000001 122.2000000000001 714.1000000000001 128.7000000000001 712.1000000000001 135.3L705.8000000000002 155.5999999999999C697.5000000000002 182.1999999999998 693.3000000000002 209.6999999999998 693.3000000000002 237.3C693.3000000000002 365.0999999999999 805.4000000000002 469 943.1000000000003 469H1240.4C1378.1000000000001 469 1490.2 365 1490.2 237.3C1490.2 209.8 1486 182.3 1477.7 155.7000000000001L1471.3 135.4000000000001C1434.8999999999999 18.9000000000001 1332.1 -67.5999999999999 1202.9 -90.3999999999999C1165.8 -96.7 1128.7 -100 1091.5 -100zM1000.4 21.8C1061 11.2 1122.4 11.2 1183 21.8999999999999C1270.1 37.1999999999998 1338.9 93.8 1362.5 169.4999999999998L1368.8 189.7999999999997C1373.7 205.3999999999996 1376.1 221.4999999999998 1376.1 237.5999999999997C1376.1 302.5999999999997 1315.1 355.4999999999998 1240.1 355.4999999999998H942.9C867.9 355.4999999999998 807 302.5999999999997 807 237.5999999999997C807 221.4999999999998 809.5 205.3999999999996 814.3 189.7999999999997L820.5999999999999 169.5999999999997C843.5999999999999 95.8999999999996 909.4999999999998 40.2999999999997 993.4999999999998 23.2999999999997C995.8 22.7 998.1 22.3 1000.4 21.8zM133.2 883.3C150.2 799.4 205.8 733.5999999999999 279.5 710.5999999999999L299.8 704.3C315.3 699.4 331.4000000000001 697 347.6 697C412.6 697 465.5 758 465.5 832.9V1130.2C465.5 1205.2 412.6 1266.1 347.6 1266.1C331.4000000000001 1266.1 315.4000000000001 1263.6 299.9000000000001 1258.8L279.6 1252.5C203.8 1228.8 147.2 1160 131.9 1073C121.2 1012.4 121.2 951 131.9 890.4C132.3 888 132.7 885.6 133.2 883.3z" />
    <glyph glyph-name="pinterest"
      unicode="&#xEA0B;"
      horiz-adv-x="1344" d="M714 1513.25C354.9000000000001 1513.25 0 1273.85 0 886.4C0 640 138.6 500 222.6 500C257.25 500 277.2 596.6000000000001 277.2 623.8999999999999C277.2 656.4499999999999 194.25 725.7499999999999 194.25 861.1999999999999C194.25 1142.6 408.45 1342.1 685.65 1342.1C924 1342.1 1100.3999999999999 1206.65 1100.3999999999999 957.8C1100.3999999999999 771.95 1025.85 423.3500000000002 784.3499999999999 423.3500000000002C697.1999999999998 423.3500000000002 622.6499999999999 486.3500000000001 622.6499999999999 576.6500000000001C622.6499999999999 708.9500000000002 715.05 837.0500000000002 715.05 973.5500000000002C715.05 1205.2500000000002 386.3999999999999 1163.2500000000002 386.3999999999999 883.2500000000001C386.3999999999999 824.45 393.7499999999999 759.3500000000001 419.9999999999999 705.8000000000001C371.7 497.9000000000001 272.9999999999999 188.1499999999999 272.9999999999999 -26.0499999999997C272.9999999999999 -92.1999999999998 282.45 -157.2999999999997 288.7499999999999 -223.4499999999998C300.6499999999999 -236.7499999999997 294.7 -235.3499999999997 312.8999999999999 -228.6999999999998C489.3 12.8000000000002 482.9999999999999 60.0500000000002 562.8 376.1000000000004C605.85 294.2000000000003 717.1499999999999 250.1000000000004 805.3499999999999 250.1000000000004C1177.0499999999997 250.1000000000004 1344 612.3500000000003 1344 938.9000000000004C1344 1286.45 1043.7 1513.25 714 1513.25z" />
    <glyph glyph-name="play-light"
      unicode="&#xEA0C;"
      horiz-adv-x="1150" d="M328.3 -9.7C275.5 -9.7 222.6 3.8999999999999 174 31.0999999999999C66 91.5 -1 208.9000000000001 -1 337.4000000000001V942.5C-1 1071.1 66.1 1188.6 174 1248.9C275.3 1305.5 395 1303 494.2 1242L986.7 939.5C1088.9 876.7 1150 764.8 1150 640C1150 515.3 1088.9 403.3 986.7 340.5L494.2 37.9000000000001C442.6 6.3 385.5 -9.7 328.3 -9.7zM328.4 1178.5C294.4 1178.5 260.4 1169.6 228.4 1151.7C154.5 1110.4 110.4 1032.2 110.4 942.5V337.4000000000001C110.4 247.8000000000002 154.5 169.6000000000001 228.4 128.3000000000002C295.1 91.0000000000002 370.6 92.7000000000003 436 132.8000000000002L928.5 435.4000000000001C997.5 477.8000000000002 1038.7 554.3000000000001 1038.7 640.1000000000001C1038.7 725.9000000000001 997.5 802.4000000000001 928.5 844.8000000000002L435.9 1147.2C401.9 1168.1 365.2 1178.5 328.4 1178.5z" />
    <glyph glyph-name="play"
      unicode="&#xEA0D;"
      horiz-adv-x="1320" d="M660 1292.4C299.7 1292.4 7.6 1000.3 7.6 640S299.7000000000001 -12.4000000000001 660 -12.4000000000001S1312.4 279.6999999999998 1312.4 639.9999999999999S1020.3 1292.4 660 1292.4zM855.1 606.9L570.8 442.8C541.0999999999999 425.5999999999999 503.9 447.0999999999999 503.9 481.3999999999999V809.8C503.9 844.0999999999999 541.1 865.5999999999999 570.8 848.4L855.0999999999999 684.2C884.8 667 884.8 624.1 855.1 606.9z" />
    <glyph glyph-name="plus"
      unicode="&#xEA0E;"
      horiz-adv-x="1500" d="M1465.5 887.3C1410.6 1121.1999999999998 1231.2 1300.6 997.4 1355.4C835.5999999999999 1393.4 664.5999999999999 1393.4 502.8 1355.4C268.8 1300.6 89.4 1121.2 34.6 887.3C-3.4 725.5 -3.4 554.5 34.6 392.6999999999998C89.5 158.7999999999997 268.9000000000001 -20.6000000000001 502.7 -75.4000000000001C583.6 -94.4000000000001 666.8000000000001 -103.9000000000001 750 -103.9000000000001C833.2 -103.9000000000001 916.4 -94.4000000000001 997.3 -75.4000000000001C1231.2 -20.5 1410.6 158.8999999999999 1465.4 392.6999999999998C1503.4 554.5 1503.4 725.5 1465.5 887.3zM1380.3 412.7000000000001C1333.1 211.4000000000001 1178.7 57 977.4 9.8000000000002C828.8 -24.9999999999998 671.5999999999999 -25.0999999999999 522.8 9.8000000000002C321.4 57 167 211.4000000000001 119.8 412.7000000000001C84.9 561.4000000000001 84.9 718.6 119.8 867.3000000000001C167 1068.6 321.4 1223 522.7 1270.2C597 1287.6 673.5 1296.4 750 1296.4C826.5 1296.4 902.9 1287.7 977.3 1270.2C1178.6 1223 1333 1068.6 1380.1999999999998 867.3C1415.1 718.6 1415.1 561.4 1380.3 412.7000000000001zM988.3 640C988.3 615.8 968.7 596.2 944.5 596.2H793.7V445.4000000000001C793.7 421.2000000000001 774.1 401.6000000000002 749.9000000000001 401.6000000000002C725.7 401.6000000000002 706.1000000000001 421.2000000000001 706.1000000000001 445.4000000000001V596.2H555.4C531.1999999999999 596.2 511.6 615.8000000000001 511.6 640C511.6 664.2 531.1999999999999 683.8 555.4 683.8H706.2V834.5C706.2 858.7 725.8000000000001 878.3 750 878.3C774.2 878.3 793.8 858.6999999999999 793.8 834.5V683.7H944.6C968.7 683.8 988.3 664.2 988.3 640z" />
    <glyph glyph-name="search"
      unicode="&#xEA0F;"
      horiz-adv-x="1400" d="M1041.5 397L1041.7 396.8C1116.3 490.7 1160.7 608.5 1160.7 736.3C1160.7 1043.5 904.6 1292.5 588.7 1292.5C276.6 1292.5 23 1049.5 16.8000000000001 747.6C16.7000000000001 743.9 16.7000000000001 740.1 16.7000000000001 736.4C16.7000000000001 731.9 16.8000000000001 727.5 16.9000000000001 723C24.0000000000001 431.5999999999999 261.6000000000001 195.5999999999999 559.3000000000001 180.9000000000001C569.0000000000001 180.4000000000001 578.9000000000001 180.2000000000001 588.7 180.2000000000001C598.6 180.2000000000001 608.4000000000001 180.4000000000001 618.1 180.9000000000001C756.1 187.7000000000001 881.1 242 976.3 327.4000000000001L976.1 327.6000000000002C999.8 348.9000000000001 1021.7 372.0999999999999 1041.5 397zM585.4 272.4000000000001C322.5 272.4000000000001 108.7 479.1000000000001 108.7 733.2S322.6 1194 585.4 1194S1062.1 987.3 1062.1 733.2S848.3 272.4000000000001 585.4 272.4000000000001zM1383.5 55L1316.1 -12.4000000000001L976.3 327.3999999999999C1000.1 348.6999999999998 1021.9 371.8999999999999 1041.7 396.8L1383.5 55z" />
    <glyph glyph-name="text"
      unicode="&#xEA10;"
      horiz-adv-x="1500" d="M807 411.8C807 380.3 781.5 354.8 750 354.8H521.8C490.3 354.8 464.8 380.3 464.8 411.8C464.8 443.3 490.3 468.8 521.8 468.8H750C781.5 468.9000000000001 807 443.3 807 411.8zM521.8 811.1H826C857.5 811.1 883 836.6 883 868.1S857.5 925.1 826 925.1H521.8C490.3 925.1 464.8 899.6 464.8 868.1S490.3 811.1 521.8 811.1zM978.2 697H521.8C490.3 697 464.8 671.5 464.8 640S490.3 583 521.8 583H978.1C1009.6 583 1035.1 608.5 1035.1 640S1009.7 697 978.2 697zM1463.2 395C1408.4 161.0999999999999 1228.9 -18.3 995 -73.2C914.9 -92 832.5 -101.4000000000001 750 -101.4000000000001C667.6 -101.4000000000001 585.2 -92 505.1 -73.2C271.1 -18.3 91.7000000000001 161.0999999999999 36.9 395C-0.8 555.3 -0.8 724.7 36.8 885C91.7 1119 271.1 1298.4 505 1353.2C665.4 1390.9 834.7 1390.8 994.9 1353.2C1228.8 1298.3 1408.2 1118.9 1463.1 885C1500.8 724.7 1500.8 555.3 1463.2 395zM1352.1 858.9C1307.1999999999998 1050.4 1160.3999999999999 1197.2 968.8999999999997 1242.1C897.2999999999998 1258.9 823.6999999999998 1267.3 749.9999999999999 1267.3C676.3999999999999 1267.3 602.6999999999998 1258.9 531.0999999999999 1242.1C339.5999999999999 1197.2 192.7999999999999 1050.3 147.8999999999999 858.9C114.2999999999999 715.7 114.2999999999999 564.3 147.8999999999999 421.0999999999999C192.7999999999999 229.6999999999998 339.7 82.8 531.0999999999999 37.8999999999999C674.3 4.3999999999999 825.6999999999999 4.3999999999999 968.8999999999997 37.8999999999999C1160.3999999999999 82.8 1307.1999999999998 229.6999999999998 1352.1 421.0999999999999C1385.7 564.3 1385.7 715.7 1352.1 858.9z" />
    <glyph glyph-name="tiktok"
      unicode="&#xEA11;"
      horiz-adv-x="1568" d="M1568 801.315A735.21 735.21 0 0 0 1138.305 938.69V313.1700000000001A568.9250000000001 568.9250000000001 0 1 0 647.5 876.915V562.3000000000001A261.17 261.17 0 1 1 830.305 313.1700000000001V1536L1138.305 1536A424.1300000000001 424.1300000000001 0 0 1 1144.815 1458.405H1144.815A427.63 427.63 0 0 1 1333.5 1177.635A425.0050000000001 425.0050000000001 0 0 1 1568 1107.145z" />
    <glyph glyph-name="tumblr"
      unicode="&#xEA12;"
      horiz-adv-x="1120" d="M1084.3 -145.0499999999999C1036.7 -195.7999999999999 909.3 -256 743.4 -256C320.6 -256 228.9000000000001 54.8 228.9000000000001 236.1000000000002V740.1000000000001H62.65C43.4 740.1000000000001 27.65 755.8500000000001 27.65 775.1000000000001V1013.1000000000003C27.65 1038.3000000000002 43.4 1060.7 67.2 1069.1000000000001C284.2 1145.4 352.45 1335.1000000000001 362.25 1478.95C365.05 1517.45 385 1536 418.6 1536H666.75C686 1536 701.75 1520.25 701.75 1501V1097.8000000000002H992.25C1011.5 1097.8000000000002 1027.25 1082.4 1027.25 1063.15V777.1999999999999C1027.25 757.9499999999999 1011.5 742.1999999999999 992.25 742.1999999999999H700.35V276C700.35 156.3 783.3 88.3999999999999 938.3500000000003 150.7000000000001C955.15 157.3499999999999 969.8500000000003 161.8999999999999 982.8 158.3999999999999C995.05 155.25 1003.1000000000003 146.5 1008.7 130.75L1085.7 -94.2999999999999C1092 -111.7999999999999 1097.25 -131.4000000000001 1084.3 -145.0499999999999z" />
    <glyph glyph-name="twitter"
      unicode="&#xEA13;"
      horiz-adv-x="1792" d="M1607.795 1004.994C1608.9325 989.076 1608.9325 973.1545 1608.9325 957.2365C1608.9325 471.7165 1239.3919999999998 -87.7165 563.9795 -87.7165C355.8975000000001 -87.7165 162.5995 -27.45 0 77.1545000000001C29.5645 73.7455 57.988 72.6080000000002 88.69 72.6080000000002C260.3825 72.6080000000002 418.4355 130.596 544.649 229.52C383.187 232.9325000000001 247.877 338.6780000000001 201.257 484.222C224.0000000000001 480.8130000000001 246.7395000000001 478.538 270.62 478.538C303.5935000000001 478.538 336.5705000000001 483.088 367.2690000000001 491.0435C198.9855 525.1579999999999 72.7685000000001 672.9734999999998 72.7685000000001 851.491V856.0375C121.6600000000001 828.748 178.5175000000001 811.6925 238.7770000000001 809.421C139.853 875.3715 75.0435 987.9385 75.0435 1115.2895C75.0435 1183.5115 93.233 1246.0495 125.0725000000001 1300.6285C305.8650000000001 1077.766 577.6225000000001 932.2255 882.3500000000001 916.304C876.666 943.5935 873.2535000000001 972.017 873.2535000000001 1000.444C873.2535000000001 1202.842 1036.9905 1367.713 1240.5225000000003 1367.713C1346.2680000000003 1367.713 1441.7795000000003 1323.368 1508.8675000000003 1251.7335C1591.8700000000001 1267.6515 1671.4635000000003 1298.3535 1741.9640000000002 1340.4235C1714.6710000000003 1255.1425 1656.6830000000002 1183.508 1580.5020000000002 1138.029C1654.4115000000002 1145.9845 1726.0460000000003 1166.4560000000001 1791.9930000000002 1194.8795C1741.9710000000002 1122.111 1679.4295000000002 1057.3015 1607.7950000000003 1004.994z" />
    <glyph glyph-name="user"
      unicode="&#xEA14;"
      horiz-adv-x="1500" d="M1070.3 341.7000000000001V358C1070.3 460.5 997.3 546.6 896.6999999999999 562.7C799.4 578.5 700.5999999999999 578.5 603.0999999999999 562.7C502.5999999999999 546.5 429.5999999999999 460.4000000000001 429.5999999999999 357.9000000000001V341.5C429.5999999999999 267.0999999999999 489.7999999999999 206.5 563.8999999999999 206.5H936C1010 206.5999999999999 1070.3 267.2000000000001 1070.3 341.7000000000001zM957.3 341.7000000000001C957.3 329.6000000000002 947.7 319.7000000000001 936 319.7000000000001H564C552.3 319.7000000000001 542.7 329.6000000000002 542.7 341.7000000000001V358C542.7 404.7000000000001 575.7 443.8 621.1 451.0999999999999C663.9 458 706.9 461.3999999999999 749.9000000000001 461.3999999999999C793.0000000000001 461.3999999999999 836.0000000000001 457.9999999999998 878.7 451.0999999999999C924.1 443.8 957.2 404.6999999999998 957.2 358V341.7000000000001zM750 650C866 650 960.4 744.9 960.4 861.7S866 1073.4 750 1073.4C634 1073.4 539.6 978.4 539.6 861.7S634 650 750 650zM750 960.3C803.7 960.3 847.3 916 847.3 861.5999999999999S803.7 763 750 763C696.3 763 652.6 807.2 652.6 861.6S696.3 960.3 750 960.3zM994.9 1318.3C994.9 1349.5 1020.2 1374.8 1051.4 1374.8C1290.3000000000002 1374.8 1484.8000000000002 1214.2 1484.8000000000002 1016.8C1484.8000000000002 985.6 1459.5000000000002 960.3 1428.3000000000002 960.3C1397.1000000000001 960.3 1371.8000000000002 985.6 1371.8000000000002 1016.8C1371.8000000000002 1151.9 1228.1000000000001 1261.6999999999998 1051.5000000000002 1261.6999999999998C1020.3 1261.8 994.9 1287.1 994.9 1318.3zM15.2 1016.8C15.2 1214.1999999999998 175.8 1374.8 373.2 1374.8C404.4 1374.8 429.7 1349.5 429.7 1318.3S404.4 1261.8 373.2 1261.8C238.1 1261.8 128.3 1151.9 128.3 1016.9C128.3 985.7 103 960.4 71.8 960.4S15.2 985.6 15.2 1016.8zM1484.8 338.5C1484.8 99.5999999999999 1290.3999999999999 -94.9000000000001 1051.4 -94.9000000000001C1020.2 -94.9000000000001 994.9 -69.6000000000001 994.9 -38.4000000000001C994.9 -7.2 1020.2 18.0999999999999 1051.4 18.0999999999999C1228 18.0999999999999 1371.7 161.8 1371.7 338.3999999999999C1371.7 369.5999999999999 1397 394.8999999999999 1428.2 394.8999999999999C1459.5 395.0999999999999 1484.8 369.7000000000001 1484.8 338.5zM429.7 -38.3C429.7 -69.5 404.4 -94.7999999999999 373.2 -94.7999999999999C175.8 -94.7999999999999 15.2 99.6000000000001 15.2 338.5999999999999C15.2 369.8 40.5 395.0999999999999 71.7 395.0999999999999S128.2 369.8 128.2 338.5999999999999C128.2 162 238.1 18.3 373.1 18.3C404.4 18.2 429.7 -7.0999999999999 429.7 -38.3z" />
    <glyph glyph-name="viadeo"
      unicode="&#xEA15;"
      horiz-adv-x="1568" d="M966.7 1009.25V1006.8C904.05 1190.9 817.6 1368.7 718.9 1536C870.4499999999999 1433.8 953.3999999999997 1186 966.7 1009.25zM1081.1499999999999 583.3000000000001C1107.75 519.6000000000001 1119.6499999999999 452.05 1119.6499999999999 383.8C1119.6499999999999 111.8500000000001 917.35 -109.7 637.3499999999999 -104.1000000000001L650.6499999999999 -103.0499999999999C910.35 60.3999999999999 1033.2 312.0499999999998 1033.2 614.7999999999998C1033.2 748.1499999999999 1010.45 880.4499999999998 967.05 1006.7999999999998C970.55 965.85 970.55 923.85 970.55 882.8999999999999C970.55 561.5999999999999 907.2 37.2999999999997 562.45 -97.1000000000001C332.5 -57.2 172.9 143 172.9 383.8C172.9 648.4 373.8 881.8500000000001 646.8000000000001 881.8500000000001C705.6000000000001 881.8500000000001 764.75 871.0000000000001 818.65 848.2500000000001C824.6 901.1000000000003 841.4 952.9 865.5500000000001 999.8C795.9 1025 721.3500000000001 1037.25 646.8000000000001 1037.25C81.55 1037.25 -188.6499999999999 351.6000000000002 192.15 -60.7C429.8000000000001 -321.7999999999997 864.15 -319.3500000000001 1101.4500000000003 -60.7C1299.5500000000002 153.8500000000001 1314.6000000000001 437.7000000000003 1228.8500000000001 642.8000000000001C1184.4 614.8000000000001 1134 594.1500000000001 1081.15 583.3000000000001zM1463.3500000000001 1495.05C1354.8500000000001 1262.3 1178.8 1329.85 1058.05 1214.7C1014.65 1172.7 985.95 1095.7 985.95 1037.9499999999998C985.95 988.6 1001.7 943.1 1027.95 902.1499999999997C1193.85 940.6499999999997 1372 1063.1499999999999 1441.6499999999999 1219.6C1439.2 1200.35 1424.85 1169.1999999999998 1416.45 1152.3999999999999C1345.3999999999999 1027.4499999999998 1190.3500000000001 922.8 1067.5 855.2499999999999C1119.3 804.8499999999999 1185.45 764.9499999999998 1260 764.9499999999998C1536.5 764.9499999999998 1645.3500000000001 1236.0499999999997 1463.3500000000001 1495.0499999999997z" />
    <glyph glyph-name="vimeo"
      unicode="&#xEA16;"
      horiz-adv-x="1568" d="M1411.2 1424H156.8C70.35 1424 0 1353.65 0 1267.2V12.8C0 -73.6499999999999 70.35 -144 156.8 -144H1411.2C1497.6499999999999 -144 1568 -73.6499999999999 1568 12.8V1267.2C1568 1353.65 1497.6499999999999 1424 1411.2 1424zM1319.5 903.2C1314.6000000000001 792.9499999999999 1237.6000000000001 641.75 1088.5 450.2999999999998C934.5 250.0999999999999 803.9499999999999 149.9999999999998 697.5500000000001 149.9999999999998C631.4 149.9999999999998 575.75 210.8999999999996 529.9 333.0499999999998C440.6500000000001 659.5999999999999 402.5 851.0499999999998 329 851.0499999999998C320.6 851.0499999999998 290.85 833.1999999999998 240.1 797.8499999999999L186.9 866.4499999999998C317.45 981.2499999999998 442.05 1108.6499999999999 520.1 1115.6499999999999C608.3 1124.05 662.5500000000001 1063.85 682.85 934.6999999999998C755.3 475.5 787.5 406.1999999999998 919.45 614.0999999999999C966.7 688.9999999999999 992.25 746.0499999999998 995.75 785.2499999999999C1008 901.45 905.1000000000003 893.3999999999999 835.4499999999999 863.6499999999999C891.1 1046 997.5 1134.55 1154.6499999999999 1129.6499999999999C1271.2 1126.5 1326.1499999999999 1050.8999999999999 1319.5 903.2z" />
    <glyph glyph-name="weibo"
      unicode="&#xEA17;"
      horiz-adv-x="1792" d="M1424.5 914.4C1451.1000000000001 998.4 1377.6000000000001 1078.1999999999998 1293.6000000000001 1060.3500000000001C1216.6000000000001 1043.5500000000002 1192.8 1158.7 1268.75 1175.15C1444.1000000000001 1213.3000000000002 1591.8 1045.3000000000002 1536.5 878.3500000000001C1512.7 804.1500000000001 1400.7 840.5500000000001 1424.5 914.4zM751.8000000000001 -27.45C379.75 -27.45 0 152.4500000000001 0 449.6000000000002C0 604.6500000000001 98 783.5000000000001 267.05 952.55C616 1301.5 978.25 1305.7 874.65 972.5C860.65 926.65 917.7 952.55 917.7 951.5C1195.95 1069.1 1409.45 1010.3 1316.7 771.6C1303.75 738.6999999999999 1320.55 733.4499999999999 1345.75 725.75C1820.7000000000005 577.6999999999999 1467.55 -27.45 751.8000000000001 -27.45zM1254.75 484.6000000000001C1235.8500000000001 679.5500000000001 980 813.6000000000001 682.85 784.5500000000001C386.05 754.45 162.05 573.5 180.95 378.55S455.6999999999999 49.55 752.85 78.6000000000001C1049.6499999999999 108.7000000000003 1273.6499999999999 289.6500000000001 1254.75 484.6000000000001zM1217.6499999999999 1413.15C1127 1393.55 1158.85 1260.1999999999998 1246.7 1279.1C1499.75 1332.3 1718.5 1094.3 1637.6499999999999 845.1C1611.75 760.4 1739.5 715.6 1768.5499999999997 803.1C1880.2 1152.4 1575.6999999999998 1488.75 1217.6499999999999 1413.15zM942.8999999999997 324.6499999999999C883.05 188.8499999999999 709.0999999999999 114.6499999999999 561.05 162.5999999999999C418.25 208.4500000000001 358.05 349.4999999999998 420 476.5499999999997C481.9499999999999 600.4499999999998 640.85 670.4499999999998 781.8999999999999 634.3999999999999C928.8999999999997 596.5999999999999 1002.75 458.7 942.8999999999997 324.6499999999999zM640.8499999999999 429.6499999999999C595.6999999999998 448.5499999999998 535.8499999999999 428.5999999999999 507.8499999999999 384.5C478.7999999999998 339.3500000000002 492.7999999999998 286.5 537.9499999999998 265.5C583.7999999999998 244.5 645.7499999999999 264.4500000000001 674.7999999999998 310.6499999999999C702.7999999999998 356.5 687.7499999999998 409.7000000000001 640.8499999999999 429.6499999999999zM754.9499999999998 476.5499999999997C737.0999999999999 482.4999999999998 715.0499999999998 474.4499999999998 704.8999999999999 457.6499999999999C694.7499999999998 439.7999999999998 699.9999999999998 420.5499999999998 717.8499999999998 412.5C735.6999999999998 405.5 758.7999999999997 413.55 768.9499999999998 431.3999999999999C778.7499999999998 449.5999999999999 772.7999999999997 469.5499999999997 754.9499999999998 476.5499999999997z" />
    <glyph glyph-name="youtube"
      unicode="&#xEA18;"
      horiz-adv-x="2016" d="M1923.7925 1101.7095C1901.809 1184.4845 1837.0379999999996 1249.6755 1754.7984999999999 1271.799C1605.7335 1312 1008 1312 1008 1312S410.27 1312 261.2015 1271.799C178.962 1249.672 114.191 1184.4845 92.2075 1101.7095C52.2655 951.675 52.2655 638.6419999999998 52.2655 638.6419999999998S52.2655 325.6089999999999 92.2075 175.5745C114.191 92.7994999999999 178.962 30.3244999999999 261.2015 8.201C410.27 -32 1008 -32 1008 -32S1605.73 -32 1754.7984999999999 8.201C1837.0379999999996 30.3245000000002 1901.809 92.7994999999999 1923.7925 175.5745000000002C1963.7345 325.6090000000002 1963.7345 638.642 1963.7345 638.642S1963.7345 951.675 1923.7925 1101.7095000000002zM812.5074999999999 354.4314999999999V922.8525L1312.094 638.635L812.5075 354.4314999999999z" />
  </font>
</defs>
</svg>
